<?xml version="1.0" standalone="no"?>
<!DOCTYPE svg PUBLIC "-//W3C//DTD SVG 1.1//EN" "http://www.w3.org/Graphics/SVG/1.1/DTD/svg11.dtd" >
<svg xmlns="http://www.w3.org/2000/svg">
<metadata>Generated by IcoMoon</metadata>
<defs>
<font id="icomoon" horiz-adv-x="1024">
<font-face units-per-em="1024" ascent="960" descent="-64" />
<missing-glyph horiz-adv-x="1024" />
<glyph unicode="&#x20;" horiz-adv-x="512" d="" />
<glyph unicode="&#xe900;" glyph-name="lupa" d="M1011.016 8.836l-326.96 326.96c52.81 65.776 84.428 149.294 84.428 240.204 0 212.066-171.934 384-384 384s-384-171.934-384-384 171.934-384 384-384c90.414 0 173.518 31.27 239.126 83.56l327.064-327.064c16.662-16.662 43.678-16.662 60.34 0 16.666 16.664 16.666 43.678 0.002 60.34zM85.82 576c0 164.938 133.73 298.666 298.666 298.666s298.668-133.728 298.668-298.666c0-82.708-33.632-157.566-87.96-211.652-0.004-0.004-0.010-0.008-0.014-0.014-0.002-0.002-0.006-0.006-0.008-0.010-54.010-53.758-128.468-86.992-210.684-86.992-164.938 0.002-298.668 133.73-298.668 298.668z" />
<glyph unicode="&#xe901;" horiz-adv-x="896" d="M864 739.456v-582.912c0-34.56-17.92-65.664-47.808-83.008-29.952-17.344-65.792-17.472-95.808-0.32l-510.080 291.456c-30.208 17.28-48.32 48.448-48.32 83.328s18.112 66.048 48.384 83.328l510.016 291.456c30.080 17.152 65.92 17.024 95.808-0.32 29.952-17.344 47.808-48.384 47.808-83.008z" />
<glyph unicode="&#xe902;" horiz-adv-x="896" d="M193.984 448c0-11.136 3.2-38.912 32.256-55.552l510.016-291.456c28.864-16.512 54.272-5.312 63.872 0.192 9.6 5.568 31.872 22.144 31.872 55.36v582.912c0 33.28-22.272 49.792-31.872 55.36-9.6 5.504-35.008 16.64-63.872 0.192l-510.016-291.456c-29.12-16.64-32.256-44.416-32.256-55.552zM129.984 448c0 43.264 21.504 86.592 64.512 111.104l510.016 291.456c85.312 48.768 191.488-12.8 191.488-111.104v-582.912c0-98.24-106.176-159.872-191.488-111.104l-510.080 291.456c-42.88 24.512-64.384 67.84-64.384 111.104z" />
<glyph unicode="&#xe903;" glyph-name="logo" horiz-adv-x="4761" d="M465.271-50.541l42.045 119.649h-240.751l48.748 35.208-289.337 154.911 77.577 75.962-77.577 109.905h118.438l-36.689 117.818 199.19-56.285-125.598 279.755 204.574-36.662 120.026 185.516 120.322-185.489 204.574 36.635-125.571-279.755 199.19 56.285-36.635-117.818h117.468l-76.661-109.878 82.502-75.962-294.236-154.938 48.829-35.208h-235.987l42.153-119.649zM1897.288 182.269l115.261 132.166c53.373-51.731 126.241-83.619 206.557-83.619 3.581 0 7.148 0.063 10.699 0.189l-0.515-0.014c68.721 0 116.338 24.226 116.338 65.544 0 37.012-42.288 60.269-123.821 67.698-161.775 14.805-301.477 56.042-301.477 240.024 0 156.472 153.43 224.17 309.822 224.17 5.817 0.288 12.632 0.452 19.485 0.452 97.563 0 187.362-33.238 258.692-89.008l-0.926 0.697-103.633-132.166c-44.532 31.928-100.126 51.055-160.187 51.055-4.649 0-9.271-0.115-13.863-0.341l0.646 0.025c-50.74 0-100.43-15.854-100.43-54.966 0-50.74 49.69-58.169 122.664-65.571 146.97-15.854 300.293-75.046 300.293-245.3 0-168.127-158.599-240.024-324.653-241.074h-8.479c-128.828-0.027-222.097 24.495-322.473 130.039zM2647.482 229.994l76.15 44.414c47.887-78.536 133.083-130.173 230.341-130.173 2.667 0 5.325 0.039 7.973 0.116l-0.389-0.009c89.878 0 209.365 28.56 209.365 137.468 1.050 91.977-102.583 118.438-213.591 135.342-142.663 22.207-281.289 54.993-281.289 205.139-2.1 154.373 155.449 207.266 283.389 207.266 109.958 0 214.641-22.207 280.212-134.319l-69.797-43.337c-40.188 64.602-125.84 94.212-208.289 95.154-94.212 0-194.587-37.012-194.587-126.89 0-80.349 92.004-103.606 200.94-121.587 148.047-23.257 293.967-52.866 293.967-219.944-1.077-166.001-159.675-219.917-301.477-219.917-131.062-0.135-255.825 47.456-312.917 171.277zM3354.877 333.6c-0.164 3.464-0.257 7.524-0.257 11.606 0 144.916 117.477 262.393 262.393 262.393 3.006 0 6-0.051 8.981-0.151l-0.434 0.012c159.702 0 271.868-112.058 271.868-273.86 0-149.792-121.43-271.222-271.222-271.222s-271.222 121.43-271.222 271.222v0zM3441.579 333.6c-0.026-1.151-0.040-2.507-0.040-3.866 0-102.22 82.866-185.086 185.086-185.086s185.086 82.866 185.086 185.086c0 1.359-0.015 2.715-0.044 4.067l0.003-0.202c0 116.311-80.376 194.561-185.059 194.561-106.728-0.108-185.032-78.357-185.032-194.668zM4477.907 244.772v275.932h-104.736v73.97h104.683v143.794l86.702 9.529v-153.43h161.775v-73.862h-162.852v-276.040c0-61.345 20.107-100.457 82.476-100.457 26.791 0.873 51.773 7.811 73.874 19.477l-0.927-0.446 25.383-71.897c-29.636-14.66-64.338-23.864-101.026-25.367l-0.508-0.017h-5.195c-108.505-0.162-159.702 65.248-159.702 178.706zM4070.805 73.468h1.077v-1.077zM1590.697 72.392v280.132h-266.484v-280.212h-209.392v740.181h209.392v-281.262h266.484v281.262h207.266v-740.234zM4071.855 73.468v439.78h-102.583v76.15h102.422v41.211c0 119.487 65.544 189.285 175.503 189.285 44.412-0.485 85.417-14.675 119.092-38.528l-0.654 0.44-35.8-64.602c-22.482 15.78-50.206 25.541-80.158 26.428l-0.218 0.005c-56.042 0-91.977-34.993-91.977-113.054v-41.238h163.901v-76.15h-163.901v-439.807z" />
<glyph unicode="&#xe904;" glyph-name="Componente-146--2" d="M512 960c282.77 0 512-229.23 512-512s-229.23-512-512-512c-282.77 0-512 229.23-512 512s229.23 512 512 512z" />
<glyph unicode="&#xe905;" horiz-adv-x="5939" d="M512 960h4915.2c282.77 0 512-229.23 512-512s-229.23-512-512-512h-4915.2c-282.77 0-512 229.23-512 512s229.23 512 512 512z" />
<glyph unicode="&#xe906;" glyph-name="Componente-126--2" horiz-adv-x="788" d="M23.723-57.086c-9.294 0-16.829 7.53-16.837 16.822v875.521c0.008 9.293 7.543 16.823 16.837 16.823 0 0 0 0 0 0h471.454c0.345 0 0.676-0.193 0.952-0.152 1.597-0.103 3.088-0.408 4.495-0.892l-0.121 0.036c0.538-0.179 1.035-0.345 1.559-0.566 1.92-0.853 3.562-1.986 4.956-3.368l168.366-168.366c1.38-1.387 2.517-3.018 3.339-4.823l0.042-0.104c0.248-0.552 0.359-1.049 0.566-1.601 0.449-1.265 0.759-2.731 0.866-4.252l0.003-0.053c0-0.373 0.193-0.69 0.193-1.063v-707.14c-0.008-9.293-7.543-16.823-16.837-16.823 0 0 0 0 0 0v0zM40.56-23.426h606.147v673.48h-151.53c-0.004 0-0.009 0-0.014 0-9.294 0-16.829 7.53-16.837 16.822v151.531h-437.767zM511.986 683.713h110.887l-110.887 110.887zM714.026 43.948v33.66h33.66v841.833h-606.106v-33.687h-33.646v50.524c0 0.004 0 0.009 0 0.014 0 9.291 7.532 16.823 16.823 16.823h639.779c0.004 0 0.009 0 0.014 0 9.299 0 16.837-7.538 16.837-16.837v0-875.506c0-0.004 0-0.009 0-0.014 0-9.291-7.532-16.823-16.823-16.823v0zM242.6 77.594v33.687h303.060v-33.673zM141.566 77.594v33.687h67.347v-33.673zM141.566 178.6v33.687h404.094v-33.701zM293.123 279.647v33.646h252.55v-33.646zM141.594 279.647v33.646h117.843v-33.646zM141.594 380.653v33.687h404.066v-33.687zM444.653 481.687v33.673h101.006v-33.673zM141.58 481.687v33.673h269.387v-33.673zM141.58 582.721v33.66h404.080v-33.66zM141.58 683.713v33.687h134.693v-33.687z" />
<glyph unicode="&#xe907;" horiz-adv-x="5939" d="M512 947.2h4915.2c275.701 0 499.2-223.499 499.2-499.2s-223.499-499.2-499.2-499.2h-4915.2c-275.701 0-499.2 223.499-499.2 499.2s223.499 499.2 499.2 499.2z" />
<glyph unicode="&#xe908;" horiz-adv-x="5939" d="M524.8 832c205.008 0 371.2-166.192 371.2-371.2s-166.192-371.2-371.2-371.2c-205.008 0-371.2 166.192-371.2 371.2s166.192 371.2 371.2 371.2z" />
<glyph unicode="&#xe909;" glyph-name="two-people" horiz-adv-x="1512" d="M1411.486 437.75l-33.306 6.156c8.798 8.026 16.581 16.903 23.302 26.573l0.339 0.515 20.993 31.459-18.469 13.79c-53.408 40.556-87.595 104.025-87.791 175.488v91.824c0 0.037 0 0.080 0 0.123 0 42.237-23.383 79.013-57.91 98.088l-0.576 0.292-25.057 25.057c-32.494 32.527-77.401 52.647-127.007 52.647-99.147 0-179.522-80.375-179.522-179.522 0-0.025 0-0.050 0-0.075v0.004-88.653c-0.196-71.495-34.383-134.964-87.246-175.123l-0.545-0.397-18.469-13.852 20.993-31.459c7.060-10.186 14.842-19.063 23.518-26.978l0.123-0.11-33.306-6.156c-31.243-5.898-57.692-23.088-75.493-47.078l-0.231-0.326c-18.032 24.317-44.481 41.507-74.968 47.285l-0.756 0.119-168.132 30.782v38.478c9.81 9.328 18.035 20.205 24.305 32.26l0.32 0.677 35.954 71.907c8.067 15.882 12.814 34.623 12.867 54.467v117.543c0 0.037 0 0.080 0 0.123 0 42.237-23.383 79.013-57.91 98.088l-0.576 0.292-25.057 25.057c-32.494 32.527-77.401 52.647-127.007 52.647-99.147 0-179.522-80.375-179.522-179.522 0-0.025 0-0.050 0-0.075v0.004-114.387c0.053-19.862 4.8-38.603 13.19-55.188l-0.323 0.704 35.892-71.784c6.59-12.733 14.815-23.61 24.574-32.888l0.052-0.049v-38.478l-168.132-30.782c-57.369-10.457-100.331-59.92-100.596-119.468v-381.728h1511.59v381.699c0 0.014 0 0.029 0 0.045 0 59.606-42.804 109.215-99.35 119.765l-0.754 0.117zM1357.002 492.049c-12.373-15.756-28.534-27.999-47.136-35.438l-0.762-0.269-65.689 11.943v38.478c9.811 9.327 18.036 20.204 24.306 32.26l0.32 0.676 22.533 45.065c16.085-36.468 38.625-67.351 66.442-92.509l0.233-0.207zM975.303 691.764h28.196c0.178-0.001 0.388-0.001 0.599-0.001 44.396 0 85.222 15.282 117.505 40.872l-0.393-0.301c31.891-25.29 72.717-40.572 117.112-40.572 0.211 0 0.421 0 0.632 0.001h28.533v-25.734c-0.023-11.914-2.863-23.16-7.889-33.114l0.194 0.423-35.892-71.784c-12.156-24.161-36.756-40.448-65.159-40.448-0.1 0-0.199 0-0.299 0.001h-74.478c-0.084 0-0.184-0.001-0.284-0.001-28.404 0-53.003 16.287-64.969 40.031l-0.19 0.417-35.892 71.784c-4.832 9.531-7.672 20.776-7.696 32.683v0.008zM1017.967 422.051l63.842-47.897-64.889-51.899-16.13 96.656zM1048.749 460.159v17.669c10.728-3.451 23.072-5.453 35.879-5.479h74.506c12.824 0.041 25.165 2.041 36.761 5.717l-0.869-0.238v-17.669l-73.138-54.854zM1225.5 422.051l17.176-3.14-16.13-96.656-64.889 51.899zM1106.373 911.179c0.066 0 0.144 0 0.222 0 36.001 0 68.584-14.639 92.12-38.288l30.787-30.787 3.571-1.785c21.074-10.619 35.277-32.084 35.277-56.866 0-0.072 0-0.143 0-0.215v0.011-43.095h-28.566c-0.121 0-0.264-0.001-0.408-0.001-39.109 0-74.501 15.91-100.059 41.611l-17.245 17.245-17.238-17.238c-25.563-25.708-60.956-41.618-100.065-41.618-0.143 0-0.287 0-0.43 0.001h-29.16v39.894c0.070 72.19 58.573 130.693 130.756 130.763h0.007zM885.973 492.111c28.053 25.361 50.594 56.245 65.995 90.998l0.68 1.718 22.533-45.065c6.59-12.733 14.815-23.61 24.574-32.888l0.052-0.049v-38.478l-65.689-11.943c-19.366 7.703-35.528 19.947-47.712 35.463l-0.185 0.244zM840.169 389.791l112.54 20.439 29.612-177.921 114.756 91.792v-339.343h-147.754c-3.236 45.875-15.294 88.237-34.485 126.394l0.871-1.911c-8.716 17.037-13.823 37.165-13.823 58.486s5.108 41.449 14.166 59.227l-0.343-0.741 10.589 21.178v54.484h-48.759v-43.095l-5.479-10.897c-11.929-23.363-18.919-50.959-18.919-80.188s6.99-56.824 19.389-81.207l-0.47 1.020c15.121-29.886 25.278-64.766 28.373-101.654l0.070-1.035h-120.358v333.063c0.003 35.765 25.699 65.528 59.636 71.837l0.451 0.070zM412.481 115.029l-22.656-22.656-22.656 22.656 18.9 113.525h7.942zM286.213 422.112l63.842-47.897-64.889-51.899-16.13 96.656zM401.153 277.313h-22.409l-24.626 37.308 36.2 28.997 36.2-28.997zM429.658 374.215l63.842 47.897 17.176-3.14-16.13-96.656zM374.25 911.179c0.066 0 0.144 0 0.222 0 36.001 0 68.584-14.639 92.12-38.288l30.787-30.787 3.571-1.785c21.074-10.619 35.277-32.084 35.277-56.866 0-0.072 0-0.143 0-0.215v0.011-18.469h-77.202c-0.121 0-0.264-0.001-0.408-0.001-39.109 0-74.501 15.91-100.059 41.611l-17.245 17.245-17.238-17.238c-20.956-21.010-48.501-35.44-79.272-39.926l-0.762-0.091v13.914c0.070 72.19 58.573 130.693 130.756 130.763h0.007zM251.121 633.278c-4.832 9.531-7.672 20.776-7.696 32.683v51.784c37.232 3.751 70.608 17.8 97.929 39.219l-0.411-0.311c31.905-25.29 72.745-40.572 117.155-40.572 0.196 0 0.391 0 0.586 0.001h77.664v-50.113c-0.023-11.914-2.863-23.16-7.889-33.114l0.194 0.423-36.138-71.722c-12.156-24.161-36.756-40.448-65.159-40.448-0.1 0-0.199 0-0.299 0.001h-74.232c-0.084 0-0.184-0.001-0.284-0.001-28.404 0-53.003 16.287-64.969 40.031l-0.19 0.417zM352.456 472.349h74.493c12.825 0.046 25.166 2.046 36.764 5.717l-0.872-0.238v-17.669l-73.138-54.854-73.138 54.854v17.669c10.728-3.454 23.072-5.456 35.88-5.479h0.012zM48.39 317.822c0 0.005 0 0.010 0 0.015 0 35.758 25.661 65.522 59.572 71.883l0.454 0.071 112.54 20.439 29.612-177.921 64.704 51.714 24.626-36.631-24.687-149.294 74.862-74.862 74.862 74.862-24.626 149.17 24.626 36.631 64.704-51.714 29.612 177.921 112.54-20.439c34.365-6.431 60.025-36.196 60.025-71.953 0-0.005 0-0.011 0-0.016v0.001-333.063h-97.703v316.933h-49.251v-316.933h-389.826v316.933h-48.759v-316.933h-97.518zM1462.461-15.241h-120.358c3.156 37.923 13.315 72.804 29.185 104.315l-0.742-1.626c11.929 23.363 18.919 50.959 18.919 80.188s-6.99 56.824-19.389 81.207l0.47-1.020-5.479 10.897v43.095h-48.759v-54.484l10.589-21.24c8.716-17.037 13.823-37.165 13.823-58.486s-5.108-41.449-14.166-59.227l0.343 0.741c-18.306-36.248-30.363-78.608-33.553-123.419l-0.061-1.065h-147.754v339.343l114.756-91.792 29.612 177.921 112.54-20.439c34.36-6.405 60.025-36.156 60.025-71.902 0-0.023 0-0.047 0-0.070v0.004zM1194.595 204.236h48.759v-48.759h-48.759zM1194.595 82.277h48.759v-48.759h-48.759z" />
<glyph unicode="&#xe90a;" glyph-name="group" horiz-adv-x="1290" d="M661.863-20.959c-4.567 4.541-10.858 7.352-17.805 7.369h-0.003c-6.949-0.023-13.238-2.833-17.81-7.37l0.002 0.002c-4.536-4.571-7.346-10.859-7.369-17.804v-0.004c0.023-6.949 2.833-13.238 7.37-17.81l-0.002 0.002c4.571-4.536 10.859-7.346 17.804-7.369h0.004c6.95 0.017 13.241 2.828 17.809 7.37l-0.001-0.001c4.536 4.571 7.346 10.859 7.369 17.804v0.004c-0.023 6.949-2.833 13.238-7.37 17.81l0.002-0.002zM1154.91 401.581l-84.017 20.097v33.495c46.949 29.885 77.657 81.635 77.709 140.56v93.906c-0.127 91.754-74.489 166.096-166.238 166.191h-0.009c-0.074 0-0.162 0-0.25 0-49.308 0-93.593-21.51-123.982-55.658l-0.146-0.167c-27.648 93.226-112.485 160.092-212.958 160.218h-0.015c-100.66-0.128-185.619-67.208-212.743-159.094l-0.398-1.571c-30.544 34.741-75.082 56.55-124.713 56.551v0c-91.758-0.095-166.12-74.438-166.247-166.179v-93.91c0.050-58.92 30.734-110.663 76.982-140.167l0.671-0.4v-33.495l-83.738-20.097c-77.748-18.812-134.595-87.797-134.595-170.060 0-0.171 0-0.341 0.001-0.512v0.026-169.318c0-13.905 11.272-25.177 25.177-25.177v0h201.361v-75.531c0-13.905 11.272-25.177 25.177-25.177v0h276.278c13.905 0 25.177 11.272 25.177 25.177v0c0 13.905-11.272 25.177-25.177 25.177v0h-112.432v110.813c0 13.905-11.272 25.177-25.177 25.177v0c-13.905 0-25.177-11.272-25.177-25.177v0-110.813h-88.315v113.66c0 0.061 0 0.132 0 0.204 0 86.268 59.567 158.623 139.815 178.178l1.255 0.258 123.876 29.699 79.718-181.32c3.992-8.947 12.808-15.071 23.056-15.073v0c0.006 0 0.013 0 0.020 0 10.228 0 19.031 6.099 22.972 14.858l0.064 0.159 79.607 181.097 123.541-29.476c81.587-19.752 141.238-92.148 141.238-178.476 0-0.058 0-0.115 0-0.173v0.009-27.913c-1.27-2.886-2.010-6.251-2.010-9.788 0-0.013 0-0.026 0-0.039v0.002c0-0.011 0-0.024 0-0.037 0-3.537 0.739-6.902 2.072-9.948l-0.062 0.16v-65.706h-87.813v110.813c0 13.905-11.272 25.177-25.177 25.177v0c-13.905 0-25.177-11.272-25.177-25.177v0-110.813h-123.318c-13.905 0-25.177-11.272-25.177-25.177v0c0-13.905 11.272-25.177 25.177-25.177v0h286.662c13.905 0 25.177 11.272 25.177 25.177v0 75.531h201.919c13.905 0 25.177 11.272 25.177 25.177v0 169.318c-0.109 82.262-57.029 151.198-133.624 169.688l-1.193 0.243zM982.354 805.309c63.961-0.063 115.798-51.881 115.893-115.828v-8.774h-72.014c-57.058 0.003-110.529 15.359-156.507 42.163l1.48-0.797c14.577 48.517 58.786 83.279 111.133 83.403h0.014zM866.517 599.705v67.716c46.547-23.414 101.44-37.124 159.535-37.124 0.004 0 0.009 0 0.013 0h72.070v-34.723c-0.127-63.944-51.945-115.742-115.884-115.837h-0.009c-63.937 0.095-115.742 51.9-115.837 115.828v4.14zM473.788 738.207c0.032 94.581 76.648 171.256 171.203 171.383h0.012c94.552-0.095 171.176-76.719 171.271-171.262v-3.303l-93.451 54.932c-3.643 2.169-8.033 3.451-12.723 3.451-7.743 0-14.67-3.496-19.289-8.995l-0.032-0.039c-35.128-41.821-87.447-68.218-145.932-68.218-0.077 0-0.154 0-0.231 0h-70.83zM191.313 683.219v6.252c0.095 63.956 51.932 115.774 115.887 115.837h0.006c52.343-0.074 96.563-34.771 110.99-82.413l0.214-0.822c-44.496-26.009-97.967-41.366-155.025-41.366 0 0-0.001 0-0.001 0h-72.015zM191.313 595.574v34.891h72.014c0.016 0 0.035 0 0.054 0 58.144 0 113.082 13.731 161.747 38.126l-2.085-0.947v-71.903c-0.095-63.937-51.9-115.742-115.828-115.837h-0.009c-63.985 0.032-115.853 51.861-115.949 115.828v0.009zM226.594 99.847v-12.896h-75.364v111.65c0 13.905-11.272 25.177-25.177 25.177v0c-13.905 0-25.177-11.272-25.177-25.177v0-111.65h-50.243v144.085c0 0.096 0 0.209 0 0.323 0 58.625 40.505 107.789 95.056 121.034l0.851 0.175 79.83 19.092 52.085-124.825c-32.298-39.727-51.874-90.928-51.917-146.699v-0.010zM307.206 308.353l-38.296 91.609v33.774c11.465-2.823 24.631-4.45 38.174-4.466h0.011c0.026 0 0.058 0 0.089 0 13.455 0 26.535 1.608 39.058 4.641l-1.13-0.231v-34.221zM406.351 327.669c-16.358-3.966-30.551-8.98-44.054-15.233l1.459 0.606 24.563 58.784 79.83-19.148c7.082-1.637 13.122-3.554 18.95-5.887l-0.862 0.305zM531.343 380.2c-14.8 9.32-31.97 16.694-50.271 21.188l-1.199 0.249-84.296 20.209v33.048c21.111 13.465 38.524 30.843 51.629 51.251l0.4 0.666c19.503-37.354 48.019-67.661 82.747-88.761l0.99-0.559zM707.583 342.798l-62.859-143.024-62.971 143.303v51.917c18.875-5.845 40.574-9.211 63.059-9.211 0.106 0 0.212 0 0.319 0h-0.017c0.065 0 0.141 0 0.218 0 22.209 0 43.651 3.284 63.867 9.393l-1.561-0.405v-51.973zM645.059 436.137c-94.552 0.095-171.176 76.719-171.271 171.262v58.235h70.842c0.066 0 0.144 0 0.222 0 66.382 0 126.48 26.901 169.989 70.396v0l101.323-59.51v-75.029c-3.488-91.873-78.765-165.040-171.151-165.131h-0.009zM757.993 416.766c35.941 21.59 64.648 51.909 83.71 88.1l0.586 1.221c13.5-20.869 30.828-38.090 51.131-51.067l0.675-0.404v-33.048l-84.296-20.209c-19.608-4.771-36.872-12.204-52.475-22.031l0.725 0.426v36.733zM882.595 327.446l-79.662 19.036c5.112 2.193 11.291 4.259 17.659 5.845l0.875 0.184 79.662 19.092 24.619-59.007c-12.229 5.855-26.617 11.055-41.571 14.834l-1.638 0.351zM944.003 399.013c0.026 0.417 0.041 0.905 0.041 1.396s-0.015 0.978-0.044 1.462l0.003-0.066v31.82c11.397-2.803 24.481-4.41 37.941-4.41 0.027 0 0.053 0 0.080 0h-0.004c0 0 0 0 0.001 0 13.547 0 26.715 1.628 39.316 4.699l-1.133-0.233v-33.439l-38.464-92.056zM1238.927 86.784h-50.243v111.65c0 13.905-11.272 25.177-25.177 25.177v0c-13.892-0.032-25.145-11.285-25.177-25.174v-111.653h-75.978v13.342c0 0.136 0 0.296 0 0.457 0 55.631-19.43 106.723-51.873 146.862l0.346-0.443 52.252 125.16 79.997-19.148c55.403-13.419 95.908-62.584 95.908-121.209 0-0.113 0-0.227 0-0.34v0.018z" />
<glyph unicode="&#xe90b;" glyph-name="Clawed-handsclawed-hands" horiz-adv-x="1177" d="M1040.397 693.174c-4.163 4.171-9.919 6.752-16.278 6.752-12.701 0-22.997-10.296-22.997-22.997s10.296-22.997 22.997-22.997c6.358 0 12.114 2.581 16.277 6.752v0c4.164 4.154 6.74 9.899 6.74 16.245s-2.576 12.091-6.74 16.245v0zM1170.46 693.123l-260.125 260.125c-4.163 4.167-9.915 6.745-16.27 6.745s-12.108-2.578-16.27-6.745v0l-159.354-159.354-111.228-45.689-151.739 21.677-155.953 156.105c-4.101 4.169-9.803 6.752-16.109 6.752-0.048 0-0.096 0-0.144 0h0.007c-6.347-0.009-12.089-2.588-16.245-6.752v0l-260.328-260.125c-4.167-4.163-6.745-9.915-6.745-16.27s2.578-12.108 6.745-16.27l156.715-156.664 17.87-89.297-37.364-37.364c-14.571-14.563-23.584-34.686-23.584-56.914 0-44.439 36.025-80.464 80.464-80.464 0.314 0 0.627 0.002 0.94 0.005h-0.048c-0.003-0.272-0.005-0.593-0.005-0.914 0-44.355 35.957-80.312 80.312-80.312 0.038 0 0.075 0 0.112 0h0.857c-0.003-0.257-0.005-0.56-0.005-0.863 0-44.383 35.98-80.362 80.362-80.362 0.019 0 0.039 0 0.058 0h0.86c-0.003-0.271-0.005-0.592-0.005-0.913 0-44.411 36.002-80.413 80.413-80.413 22.232 0 42.357 9.022 56.913 23.604l8.124 8.124 40.613-40.613c14.557-14.584 34.682-23.606 56.914-23.606 44.411 0 80.413 36.002 80.413 80.413 0 0.339-0.002 0.678-0.006 1.016l0.001-0.051h0.863c0.047 0 0.102 0 0.158 0 44.327 0 80.261 35.934 80.261 80.261 0 0.339-0.002 0.678-0.006 1.016l0.001-0.051c0.258-0.003 0.563-0.005 0.868-0.005 44.383 0 80.362 35.98 80.362 80.362 0 0.305-0.002 0.61-0.005 0.914v-0.046h0.863c0.028 0 0.062 0 0.096 0 44.411 0 80.413 36.002 80.413 80.413 0 22.229-9.020 42.352-23.599 56.908l-11.17 11.17 112.599 171.234 160.928 160.928c4.153 4.16 6.721 9.903 6.721 16.247 0 6.241-2.486 11.902-6.523 16.046l0.005-0.005zM55.487 649.617l227.635 227.635 32.541-32.541-113.868-113.817c-4.164-4.164-6.739-9.916-6.739-16.27 0-12.708 10.302-23.010 23.010-23.010 6.354 0 12.107 2.575 16.27 6.739l113.817 113.817 64.067-64.067-227.635-227.584zM225.299 268.517c-6.238-6.232-14.853-10.086-24.368-10.086-19.042 0-34.479 15.437-34.479 34.479 0 9.527 3.864 18.152 10.111 24.393v0l48.481 48.481c6.243 6.243 14.867 10.104 24.393 10.104 19.052 0 34.497-15.445 34.497-34.497 0-9.526-3.861-18.15-10.104-24.393v0zM257.84 187.291c-6.225 6.251-10.073 14.873-10.073 24.393s3.848 18.142 10.074 24.394l48.734 48.734c6.238 6.232 14.853 10.086 24.368 10.086 19.042 0 34.479-15.437 34.479-34.479 0-9.527-3.864-18.152-10.111-24.393v0l-48.786-48.786c-6.245-6.237-14.869-10.094-24.393-10.094s-18.148 3.857-24.393 10.094v0zM387.903 106.066c-6.238-6.232-14.853-10.086-24.368-10.086-19.042 0-34.479 15.437-34.479 34.479 0 9.527 3.864 18.152 10.111 24.393v0l48.786 48.786c6.243 6.243 14.867 10.104 24.393 10.104 19.052 0 34.497-15.445 34.497-34.497 0-9.526-3.861-18.15-10.104-24.393v0zM517.965 73.576l-48.786-48.786c-6.243-6.243-14.867-10.104-24.393-10.104-19.052 0-34.497 15.445-34.497 34.497 0 9.526 3.861 18.15 10.104 24.393l48.786 48.786c6.243 6.243 14.867 10.104 24.393 10.104 19.052 0 34.497-15.445 34.497-34.497 0-9.526-3.861-18.15-10.104-24.393v0zM875.662 236.027c-6.251-6.225-14.873-10.073-24.393-10.073s-18.142 3.848-24.394 10.074l-24.417 24.417c-4.164 4.164-9.916 6.739-16.27 6.739-12.708 0-23.010-10.302-23.010-23.010 0-6.354 2.575-12.107 6.739-16.27l24.418-24.418c6.247-6.241 10.111-14.866 10.111-24.393 0-19.042-15.437-34.479-34.479-34.479-9.515 0-18.129 3.854-24.368 10.086v0l-24.368 24.368c-4.123 3.954-9.731 6.389-15.907 6.389-12.701 0-22.997-10.296-22.997-22.997 0-6.189 2.444-11.806 6.421-15.94l24.361-24.361c6.797-6.323 11.036-15.317 11.036-25.301 0-19.065-15.456-34.521-34.521-34.521-9.984 0-18.978 4.239-25.281 11.014l-0.019 0.021-24.672 24.621c-4.164 4.164-9.916 6.739-16.27 6.739-12.708 0-23.010-10.302-23.010-23.010 0-6.354 2.575-12.107 6.739-16.27v0l24.418-24.368c6.243-6.243 10.104-14.867 10.104-24.393 0-19.052-15.445-34.497-34.497-34.497-9.526 0-18.15 3.861-24.393 10.104l-40.613 40.613 8.123 8.123c14.492 14.542 23.453 34.605 23.453 56.761 0 44.411-36.002 80.413-80.413 80.413-0.303 0-0.606-0.002-0.908-0.005h0.046c0.003 0.243 0.004 0.529 0.004 0.816 0 44.411-36.002 80.413-80.413 80.413-0.287 0-0.574-0.002-0.86-0.005h0.044c0.003 0.243 0.004 0.529 0.004 0.816 0 44.411-36.002 80.413-80.413 80.413-0.287 0-0.574-0.002-0.86-0.005h0.044c0.003 0.238 0.004 0.52 0.004 0.802 0 44.467-36.048 80.515-80.515 80.515-9.837 0-19.261-1.764-27.975-4.993l0.557 0.181-12.641 63.102 243.423 243.473 70.666-10.153-22.54-9.29c-2.926-1.243-5.422-2.957-7.511-5.074l-0.002-0.003-154.43-154.481c-14.725-14.588-23.842-34.814-23.842-57.17 0-44.439 36.025-80.464 80.464-80.464 22.368 0 42.605 9.127 57.189 23.861l56.865 56.916c4.168 4.155 9.919 6.724 16.27 6.724s12.102-2.569 16.271-6.724l-0.001 0.001c24.957-24.985 59.449-40.44 97.552-40.44 21.618 0 42.074 4.975 60.285 13.843l-0.818-0.359 176.158-176.158c6.283-6.253 10.17-14.907 10.17-24.469 0-9.486-3.826-18.079-10.020-24.319l0.002 0.002zM863.833 361.673l-126.356 126.356 16.245 16.245c4.164 4.164 6.739 9.916 6.739 16.27 0 12.708-10.302 23.010-23.010 23.010-6.354 0-12.107-2.575-16.27-6.739v0c-9.188-10.183-19.154-19.312-29.924-27.433l-0.536-0.387c-14.325-9.662-31.975-15.423-50.971-15.423-25.397 0-48.389 10.298-65.028 26.947l-0.001 0.001c-12.496 12.462-29.741 20.167-48.786 20.167s-36.29-7.705-48.788-20.169l0.002 0.002-56.807-57.010c-6.243-6.243-14.867-10.104-24.393-10.104-19.052 0-34.497 15.445-34.497 34.497 0 9.526 3.861 18.15 10.104 24.393l151.333 151.283 203.064 83.713 236.062-236.062zM991.713 546.816l-227.685 227.635 65.031 65.031 113.817-113.817c4.164-4.164 9.916-6.739 16.27-6.739 12.708 0 23.010 10.302 23.010 23.010 0 6.354-2.575 12.107-6.739 16.27l-113.817 113.817 32.49 32.49 227.838-227.787z" />
<glyph unicode="&#xe90c;" glyph-name="tendencia" d="M1024-3.967h-60.033v603.966h-181.991v-603.966h-59.984v363.981h-180.001v-363.981h-59.984v483.998h-180.001v-483.998h-60.033v303.997h-181.991v-303.997h-59.984v-59.984h1024zM1023.951 720.015v239.985h-242.023v-59.984h139.429l-289.438-287.594-239.985 239.985-382.957-381.209 42.416-42.416 340.783 338.794 239.742-239.985 331.999 330.009v-137.585z" />
<glyph unicode="&#xe90d;" glyph-name="home" horiz-adv-x="1149" d="M1136.475 555.585l-544.496 398.684c-4.873 3.611-11.004 5.78-17.642 5.78s-12.768-2.169-17.722-5.837l0.081 0.057-544.496-398.684c-7.871-5.457-12.96-14.445-12.96-24.621 0-16.495 13.372-29.867 29.867-29.867 6.959 0 13.363 2.38 18.44 6.371l-0.064-0.049 526.828 385.748 526.881-385.748c4.728-3.284 10.588-5.246 16.907-5.246 16.495 0 29.867 13.372 29.867 29.867 0 9.536-4.469 18.028-11.427 23.496l-0.064 0.049zM992.187 500.636c-0.016 0-0.034 0-0.053 0-16.466 0-29.815-13.348-29.815-29.815v0-475.087h-238.779v259.129c0 82.418-66.813 149.23-149.23 149.23s-149.23-66.813-149.23-149.23v-259.339h-238.779v475.087c-0.69 15.947-13.786 28.614-29.841 28.614s-29.15-12.667-29.839-28.552l-0.002-0.062v-504.796c0 0 0 0 0 0 0-16.477 13.342-29.837 29.812-29.867h298.464c15.662 0.010 28.498 12.096 29.703 27.45l0.007 0.103c0.020 0.346 0.032 0.75 0.032 1.157s-0.012 0.811-0.034 1.212l0.003-0.056v289.206c0 49.456 40.092 89.549 89.549 89.549s89.549-40.092 89.549-89.549v0-289.206c-0.020-0.346-0.032-0.75-0.032-1.157s0.012-0.811 0.034-1.212l-0.003 0.056c1.236-15.446 14.057-27.517 29.706-27.553h298.465c16.473 0.030 29.815 13.39 29.815 29.867 0 0 0 0 0 0v0 504.796c0 0.063 0.001 0.137 0.001 0.212 0 16.355-13.17 29.635-29.483 29.813h-0.017z" />
<glyph unicode="&#xe90e;" glyph-name="filtrar" horiz-adv-x="1080" d="M318.807 823.015h-176.177c-17.619-0.734-31.625-15.196-31.625-32.929s14.006-32.195 31.559-32.927l0.066-0.002h176.177c17.619 0.734 31.625 15.196 31.625 32.929s-14.006 32.195-31.559 32.927l-0.066 0.002zM462.136 823.015h-30.967c-17.619-0.734-31.625-15.196-31.625-32.929s14.006-32.195 31.559-32.927l0.066-0.002h30.967c17.619 0.734 31.625 15.196 31.625 32.929s-14.006 32.195-31.559 32.927l-0.066 0.002zM142.63 478.671h176.177c17.619 0.734 31.625 15.196 31.625 32.929s-14.006 32.195-31.559 32.927l-0.066 0.002h-176.177c-17.619-0.734-31.625-15.196-31.625-32.929s14.006-32.195 31.559-32.927l0.066-0.002zM318.807 266.151h-176.177c-17.619-0.734-31.625-15.196-31.625-32.929s14.006-32.195 31.559-32.927l0.066-0.002h176.177c17.619 0.734 31.625 15.196 31.625 32.929s-14.006 32.195-31.559 32.927l-0.066 0.002zM735.461 624.15c-0.113 0-0.246 0-0.379 0-43.853 0-85.779-8.246-124.313-23.273l2.331 0.8v325.42c-0.031 18.159-14.743 32.872-32.899 32.902h-547.244c-0.016 0-0.035 0-0.054 0-18.171 0-32.902-14.731-32.902-32.902 0 0 0 0 0 0v0-821.91c0-18.171 14.731-32.902 32.902-32.902v0h428.374c63.475-83.228 162.693-136.394 274.328-136.394 190.027 0 344.075 154.048 344.075 344.075s-154.048 344.075-344.075 344.075c-0.050 0-0.101 0-0.151 0h0.008zM735.461 1.804c-153.655 0-278.217 124.562-278.217 278.217s124.562 278.217 278.217 278.217c153.655 0 278.217-124.562 278.217-278.217v0c-0.214-153.558-124.655-277.98-278.199-278.163h-0.018zM547.295 567.969c-57.338-37.986-101.926-91.084-128.602-153.65l-0.856-2.259h-351.978v208.165h481.383zM65.858 894.142h481.383v-208.058h-481.383zM65.858 138.305v208.058h331.979c-4.094-19.907-6.437-42.786-6.437-66.213 0-51.408 11.285-100.181 31.512-143.976l-0.883 2.13zM889.434 447.651h-309.184c-17.553-0.813-31.476-15.242-31.476-32.923 0-7.032 2.203-13.55 5.956-18.902l-0.070 0.106 102.739-147.092v-145.479c0.031-18.159 14.743-32.872 32.899-32.902h90.323c18.159 0.031 32.872 14.743 32.902 32.899v145.16l102.954 147.361c3.692 5.25 5.9 11.775 5.9 18.817 0 18.196-14.747 32.948-32.941 32.956h-0.001zM747.611 258.893v-122.631h-24.462v122.899c0 0.015 0 0.033 0 0.051 0 7.044-2.214 13.571-5.983 18.924l0.070-0.104-72.471 103.76h181.5l-72.686-104.083c-3.718-5.243-5.95-11.767-5.968-18.812v-0.004z" />
<glyph unicode="&#xe90f;" glyph-name="persons" horiz-adv-x="1596" d="M1073.283 384.666l-135.873 60.427c-9.376 4.244-15.782 13.517-15.782 24.287 0 0.003 0 0.006 0 0.008v0 37.308c45.813 36.605 74.92 92.457 74.962 155.109v52.474c15.002 8.422 24.976 24.226 24.987 42.359v5.055c-0.197 109.367-88.802 197.972-198.15 198.169h-49.994c-109.367-0.197-197.972-88.802-198.169-198.15v-46.118c-0.004-0.23-0.006-0.502-0.006-0.775 0-15.585 7.265-29.474 18.593-38.463l0.101-0.078c1.832-1.426 3.893-2.779 6.058-3.963l0.241-0.121v-10.313c0-0.010 0-0.022 0-0.035 0-62.614 29.029-118.449 74.363-154.778l0.391-0.303v-37.308c0-0.002 0-0.005 0-0.008 0-10.77-6.405-20.044-15.615-24.219l-0.167-0.068-135.873-60.427c-43.5-19.728-73.215-62.769-73.232-112.753v-309.888c-0.2-1.153-0.315-2.48-0.315-3.835 0-12.997 10.536-23.534 23.534-23.534 12.569 0 22.837 9.853 23.5 22.257l0.003 0.059c0.081 0.758 0.127 1.637 0.127 2.526s-0.046 1.769-0.136 2.635l0.009-0.108v309.816q0 4.015 0.485 8.029l62.296-62.642c9.321-9.278 15.090-22.118 15.090-36.306 0-0.060 0-0.121 0-0.181v0.009-218.865c-0.15-1-0.236-2.154-0.236-3.327 0-12.997 10.536-23.534 23.534-23.534 12.512 0 22.744 9.764 23.49 22.089l0.003 0.066c0.080 0.706 0.126 1.524 0.126 2.353s-0.046 1.647-0.135 2.453l0.009-0.099v218.934c-0.025 27.049-11.027 51.524-28.791 69.214l-74.619 74.619c6.675 6.943 14.62 12.606 23.471 16.626l0.478 0.194 133.589 59.388 99.119-99.119v-340.134c-0.020-0.364-0.032-0.79-0.032-1.218 0-12.997 10.536-23.534 23.534-23.534 11.643 0 21.311 8.455 23.2 19.56l0.020 0.139c0.081 0.758 0.127 1.637 0.127 2.526s-0.046 1.769-0.136 2.635l0.009-0.108v340.549l99.050 99.050 133.589-59.319c9.324-4.225 17.268-9.887 23.927-16.796l0.023-0.024-74.616-74.616c-17.786-17.671-28.794-42.145-28.794-69.191 0-0.009 0-0.019 0-0.028v0.002-218.865c-0.020-0.364-0.032-0.79-0.032-1.218 0-12.997 10.536-23.534 23.534-23.534 11.643 0 21.311 8.455 23.2 19.56l0.020 0.139c0.081 0.758 0.127 1.637 0.127 2.526s-0.046 1.769-0.136 2.635l0.009-0.108v218.519c0 0.068-0.001 0.149-0.001 0.229 0 14.17 5.769 26.992 15.087 36.246l62.299 62.299c0.282-2.38 0.458-5.168 0.484-7.991v-309.924c-0.2-1.153-0.315-2.48-0.315-3.835 0-12.997 10.536-23.534 23.534-23.534 12.569 0 22.837 9.853 23.5 22.257l0.003 0.059c0.081 0.758 0.127 1.637 0.127 2.526s-0.046 1.769-0.136 2.635l0.009-0.108v310.232c0 0.007 0 0.016 0 0.024 0 49.801-29.464 92.72-71.911 112.276l-0.767 0.317zM798.283 345.005l-86.937 86.798c6.479 10.694 10.313 23.616 10.313 37.434 0 0.004 0 0.009 0 0.013v-0.001 9.621c22.605-9.731 48.919-15.39 76.554-15.39s53.949 5.659 77.846 15.881l-1.292-0.491v-9.483c0-0.004 0-0.008 0-0.012 0-13.818 3.834-26.74 10.497-37.761l-0.184 0.327zM798.283 510.296c-83.687 0.079-151.507 67.899-151.586 151.578v10.528c16.421 6.919 30.485 16.256 42.481 27.735l-0.051-0.048c4.706 4.318 7.645 10.496 7.645 17.36 0 12.997-10.536 23.534-23.534 23.534-4.345 0-8.415-1.178-11.908-3.231l0.11 0.060c-1.375-1.014-2.577-2.129-3.645-3.364l-0.024-0.028c-9.41-9.366-21.032-16.518-34.013-20.604l-0.595-0.162h-0.623c-0.265 0.551-0.42 1.198-0.42 1.882 0 0.068 0.002 0.137 0.005 0.204v-0.010 46.237c0.079 83.687 67.899 151.507 151.578 151.586h49.982c83.687-0.079 151.507-67.899 151.586-151.578v-4.852c0-0.009 0-0.020 0-0.030 0-0.68-0.427-1.261-1.028-1.489l-0.011-0.004c-21.827-6.977-46.935-10.997-72.982-10.997-61.611 0-117.967 22.498-161.302 59.726l0.329-0.276c-3.996 3.231-9.139 5.187-14.739 5.187-12.997 0-23.534-10.536-23.534-23.534 0-5.6 1.956-10.743 5.222-14.784l-0.035 0.045c50.951-44.025 117.837-70.844 190.986-70.844 18.418 0 36.439 1.7 53.914 4.952l-1.809-0.28v-42.223c0-0.144 0.001-0.314 0.001-0.485 0-83.833-67.96-151.793-151.793-151.793-0.073 0-0.147 0-0.22 0h0.011zM421.81 511.957v50.044c-0.072 60.729-31.416 114.122-78.792 144.948l-0.669 0.408c2.854 8.792 4.499 18.907 4.499 29.408 0 54.321-44.036 98.358-98.358 98.358s-98.358-44.036-98.358-98.358c0-10.5 1.645-20.616 4.692-30.104l-0.193 0.696c-48.045-31.235-79.389-84.627-79.461-145.345v-50.055c0-0.007 0-0.016 0-0.025 0-58.905 29.433-110.936 74.394-142.188l0.569-0.374v-51.428c0-0.027 0-0.058 0-0.089 0-10.327-5.905-19.275-14.523-23.652l-0.151-0.070-80.915-40.284c-32.499-16.353-54.405-49.442-54.405-87.648 0-0.115 0-0.23 0.001-0.345v0.018-203.568c-0.2-1.153-0.315-2.48-0.315-3.835 0-12.997 10.536-23.534 23.534-23.534 12.569 0 22.837 9.853 23.5 22.257l0.003 0.059c0.081 0.758 0.127 1.637 0.127 2.526s-0.046 1.769-0.136 2.635l0.009-0.108v193.393l38.139-38.069c9.321-9.278 15.090-22.118 15.090-36.306 0-0.060 0-0.121 0-0.181v0.009-118.846c1.329-11.854 11.296-20.985 23.395-20.985s22.066 9.131 23.386 20.878l0.010 0.107v118.915c-0.025 27.049-11.027 51.524-28.791 69.214l-53.785 53.785c3.233 2.883 6.895 5.396 10.852 7.41l0.292 0.135 80.846 40.838c4.429 2.156 8.218 4.46 11.768 7.068l-0.209-0.146 57.104-57.104v-240.253c-0.15-1-0.236-2.154-0.236-3.327 0-12.997 10.536-23.534 23.534-23.534 12.512 0 22.744 9.764 23.49 22.089l0.003 0.066c0.080 0.706 0.126 1.524 0.126 2.353s-0.046 1.647-0.135 2.453l0.009-0.099v240.115l57.035 57.243c3.342-2.462 7.13-4.765 11.118-6.726l0.441-0.196 22.288-11.144c2.074-0.663 4.46-1.045 6.936-1.045 12.997 0 23.534 10.536 23.534 23.534 0 7.8-3.795 14.713-9.638 18.996l-0.066 0.046-22.288 11.144c-8.804 4.396-14.744 13.339-14.744 23.67 0 0.050 0 0.099 0 0.149v-0.008 51.359c45.744 31.55 75.363 83.635 75.447 142.644v0.013zM248.767 788.48c28.464-0.039 51.528-23.103 51.567-51.563v-0.004c-0.007-3.259-0.309-6.442-0.88-9.53l0.050 0.324c-15.176 4.825-32.632 7.605-50.736 7.605s-35.56-2.78-51.962-7.937l1.226 0.332c-0.559 2.844-0.88 6.113-0.88 9.458 0 24.991 17.873 45.807 41.534 50.363l0.322 0.052c2.834 0.573 6.092 0.901 9.427 0.901 0.117 0 0.234 0 0.351-0.001h-0.018zM248.767 688.53c69.873-0.079 126.49-56.72 126.529-126.595v-8.518c-13.14-4.272-28.26-6.735-43.956-6.735-45.855 0-86.799 21.023-113.721 53.955l-0.208 0.262c-4.343 5.665-11.113 9.281-18.727 9.281-5.369 0-10.317-1.798-14.277-4.824l0.057 0.042c-0.84-0.642-1.585-1.299-2.282-2.005l-0.002-0.002c-16.306-16.846-36.38-29.944-58.869-37.944l-1.073-0.333c1.737 68.472 57.552 123.342 126.232 123.553h0.020zM248.767 245.124l-54.059 54.059c1.539 5.621 2.423 12.074 2.423 18.734 0 0.008 0 0.017 0 0.025v-0.001 28.518c15.421-4.952 33.16-7.806 51.567-7.806s36.146 2.854 52.801 8.145l-1.234-0.338v-28.518c0-0.007 0-0.015 0-0.024 0-6.66 0.884-13.114 2.541-19.25l-0.119 0.515zM248.767 385.358c-69.862 0.079-126.48 56.672-126.598 126.518v4.856c28.93 7.151 54.147 20.159 75.414 37.768l-0.313-0.252c12.623-11.952 26.845-22.425 42.26-31.015l1.070-0.548c25.781-14.452 56.566-22.988 89.341-23.049h0.018c16.021 0.072 31.549 2.036 46.417 5.68l-1.356-0.281c-3.808-66.868-58.92-119.662-126.382-119.746h-0.008zM1542.022 303.613l-131.028 65.41c-8.769 4.446-14.674 13.394-14.674 23.721 0 0.031 0 0.063 0 0.094v-0.005 33.155c30.69 27.211 49.945 66.727 49.975 110.742v26.584h1.315c0.021 0 0.045 0 0.069 0 12.959 0 23.465 10.505 23.465 23.465 0 0.024 0 0.049 0 0.073v-0.004 49.975c-0.039 81.861-66.291 148.235-148.102 148.471h-49.998c-81.89-0.079-148.254-66.442-148.333-148.325v-49.983c0-0.021 0-0.045 0-0.069 0-12.959 10.505-23.465 23.465-23.465 0.024 0 0.049 0 0.073 0h1.726v-26.649c0.030-44.020 19.285-83.537 49.821-110.614l0.154-0.134v-33.086c0-0.029 0-0.064 0-0.098 0-10.343-5.938-19.298-14.591-23.643l-0.152-0.069c-9.615-3.104-16.448-11.975-16.448-22.442 0-12.997 10.536-23.534 23.534-23.534 3.395 0 6.622 0.719 9.537 2.013l-0.15-0.059c1.697 0.636 3.158 1.381 4.517 2.269l-0.088-0.054c4.46 2.167 8.271 4.471 11.849 7.075l-0.221-0.153 57.104-57.104v-315.146c-0.2-1.153-0.315-2.48-0.315-3.835 0-12.997 10.536-23.534 23.534-23.534 12.569 0 22.837 9.853 23.5 22.257l0.003 0.059c0.081 0.758 0.127 1.637 0.127 2.526s-0.046 1.769-0.136 2.635l0.009-0.108v315.354l57.104 57.104c3.347-2.489 7.137-4.794 11.135-6.736l0.424-0.186 126.598-63.403-38.416-38.416c-17.78-17.685-28.786-42.165-28.794-69.216v-193.81c1.329-11.854 11.296-20.985 23.395-20.985s22.066 9.131 23.386 20.878l0.010 0.107v193.808c-0.001 0.085-0.001 0.186-0.001 0.286 0 14.152 5.77 26.956 15.086 36.187l36.412 36.412c1.082-3.962 1.712-8.514 1.73-13.21v-253.554c1.164-11.975 11.178-21.26 23.361-21.26s22.197 9.284 23.353 21.164l0.008 0.096v253.058c0 0.099 0.001 0.217 0.001 0.335 0 38.167-21.877 71.224-53.776 87.315l-0.56 0.256zM1171.502 615.090v21.803c0.079 56.048 45.494 101.463 101.534 101.542h49.982c56.048-0.079 101.463-45.494 101.542-101.534v-25.963c-60.357 1.934-116.44 18.536-165.327 46.331l1.767-0.925c-3.624 2.471-8.098 3.945-12.917 3.945-0.009 0-0.018 0-0.028 0h0.001c-6.467-0.036-12.31-2.675-16.542-6.921l-0.001-0.001c-16.303-16.946-36.404-30.116-58.942-38.152l-1.069-0.333zM1298.031 320.087l-54.059 54.059c1.539 5.621 2.423 12.074 2.423 18.734 0 0.008 0 0.017 0 0.025v-0.001 4.984c15.334-5.873 33.070-9.274 51.601-9.274s36.268 3.401 52.619 9.614l-1.018-0.34v-4.984c0-0.063 0-0.137 0-0.212 0-6.595 0.884-12.983 2.541-19.053l-0.118 0.506zM1298.031 435.333c-56.048 0.079-101.463 45.494-101.542 101.534v37.661c21.076 8.657 39.223 19.962 55.132 33.776l-0.242-0.206c43.108-22.047 93.403-37.058 146.614-42.029l1.649-0.124v-29.002c0 0 0 0 0 0 0-56.108-45.445-101.601-101.534-101.68h-0.008z" />
<glyph unicode="&#xe910;" glyph-name="logout" d="M991.986 479.997h-405.327c-17.224 0.582-30.965 14.685-30.965 31.997s13.742 31.415 30.912 31.995l0.053 0.001h405.327c0.313 0.011 0.68 0.017 1.049 0.017 17.681 0 32.014-14.333 32.014-32.014s-14.333-32.014-32.014-32.014c-0.369 0-0.736 0.006-1.102 0.019l0.053-0.001zM831.951 319.996c-17.665 0.020-31.978 14.346-31.978 32.014 0 8.84 3.583 16.843 9.376 22.637l137.399 137.399-137.399 137.399c-5.68 5.774-9.186 13.7-9.186 22.445 0 17.681 14.333 32.014 32.014 32.014 8.745 0 16.672-3.507 22.45-9.191l159.997-159.997c5.793-5.793 9.376-13.796 9.376-22.636s-3.583-16.843-9.376-22.636l-160.001-160.001c-5.763-5.833-13.763-9.446-22.606-9.446-0.023 0-0.045 0-0.068 0h0.004zM341.333-64c-0.082 0-0.18 0-0.277 0-9.343 0-18.347 1.457-26.795 4.157l0.623-0.172-256.764 85.531c-34.011 11.943-57.984 43.721-58.12 81.118v768.043c0.059 47.1 38.225 85.266 85.319 85.325h0.006c0.079 0 0.173 0 0.267 0 9.347 0 18.354-1.457 26.805-4.157l-0.623 0.172 256.764-85.531c34.011-11.943 57.984-43.721 58.12-81.118v-768.043c-0.059-47.1-38.225-85.266-85.319-85.325h-0.006zM85.325 896.006c-11.765-0.039-21.292-9.566-21.331-21.327v-768.030c0.139-9.482 6.204-17.511 14.65-20.561l0.155-0.049 255.562-85.153c1.947-0.59 4.185-0.93 6.502-0.93 0.129 0 0.258 0.001 0.387 0.003h-0.019c11.765 0.039 21.292 9.566 21.331 21.327v768.064c-0.139 9.482-6.204 17.511-14.65 20.561l-0.155 0.049-255.459 85.050c-1.946 0.59-4.182 0.93-6.497 0.93-0.131 0-0.262-0.001-0.392-0.003h0.020zM650.618 618.667c-17.681 0-32.014 14.333-32.014 32.014v0 191.981c-0.039 29.446-23.899 53.306-53.341 53.345h-479.973c-0.313-0.011-0.68-0.017-1.049-0.017-17.681 0-32.014 14.333-32.014 32.014s14.333 32.014 32.014 32.014c0.369 0 0.736-0.006 1.102-0.019l-0.053 0.001h480.003c64.781-0.059 117.28-52.558 117.339-117.333v-192.021c-0.020-17.666-14.345-31.98-32.014-31.98 0 0 0 0 0 0v0zM565.294 63.987h-170.684c-0.313-0.011-0.68-0.017-1.049-0.017-17.681 0-32.014 14.333-32.014 32.014s14.333 32.014 32.014 32.014c0.369 0 0.736-0.006 1.102-0.019l-0.053 0.001h170.684c29.446 0.039 53.306 23.899 53.345 53.341v192.019c-0.011 0.313-0.017 0.68-0.017 1.049 0 17.681 14.333 32.014 32.014 32.014s32.014-14.333 32.014-32.014c0-0.369-0.006-0.736-0.019-1.102l0.001 0.053v-192.015c-0.059-64.781-52.558-117.28-117.333-117.339h-0.006z" />
<glyph unicode="&#xe912;" glyph-name="calendar" d="M558.014 231.958c0.029-44.182 35.838-79.99 80.017-80.019h93.997c44.182 0.029 79.99 35.838 80.019 80.017v93.997c-0.029 44.182-35.838 79.99-80.017 80.019h-93.997c-44.182-0.029-79.99-35.838-80.019-80.017v-0.003zM638.033 325.952h93.994v-93.994h-94.046zM879.903 545.928c0-28.586-23.173-51.759-51.759-51.759s-51.759 23.173-51.759 51.759c0 28.586 23.173 51.759 51.759 51.759s51.759-23.173 51.759-51.759zM672.867 545.928c0-28.586-23.173-51.759-51.759-51.759s-51.759 23.173-51.759 51.759c0 28.586 23.173 51.759 51.759 51.759s51.759-23.173 51.759-51.759zM983.99 256.078c22.097 0 40.010 17.913 40.010 40.010v0 423.906c-0.264 88.252-71.735 159.723-159.962 159.987h-51.784v40.010c0 22.097-17.913 40.010-40.010 40.010s-40.010-17.913-40.010-40.010v-40.010h-182.243v40.010c0 22.097-17.913 40.010-40.010 40.010s-40.010-17.913-40.010-40.010v0-40.010h-180.121v40.010c0 22.097-17.913 40.010-40.010 40.010s-40.010-17.913-40.010-40.010v0-40.010h-49.844c-88.252-0.264-159.723-71.735-159.987-159.962v-624.031c0.264-88.252 71.735-159.723 159.962-159.987h703.947c88.252 0.264 159.723 71.735 159.987 159.962v0.025c0 22.097-17.913 40.010-40.010 40.010s-40.010-17.913-40.010-40.010v0c-0.029-44.182-35.838-79.99-80.017-80.019h-703.873c-44.182 0.029-79.99 35.838-80.019 80.017v624.009c0.029 44.182 35.838 79.99 80.017 80.019h50.002v-40.010c0-22.097 17.913-40.010 40.010-40.010s40.010 17.913 40.010 40.010v0 40.010h180.018v-40.010c0-22.097 17.913-40.010 40.010-40.010s40.010 17.913 40.010 40.010v0 40.010h181.985v-40.010c0-22.097 17.913-40.010 40.010-40.010s40.010 17.913 40.010 40.010v40.010h51.759c44.182-0.029 79.99-35.838 80.019-80.017v-424.013c0.059-22.052 17.949-39.906 40.010-39.906 0.055 0 0.109 0 0.164 0h-0.008zM465.831 545.928c0-28.586-23.173-51.759-51.759-51.759s-51.759 23.173-51.759 51.759c0 28.586 23.173 51.759 51.759 51.759s51.759-23.173 51.759-51.759zM465.831 338.892c0-28.586-23.173-51.759-51.759-51.759s-51.759 23.173-51.759 51.759c0 28.586 23.173 51.759 51.759 51.759s51.759-23.173 51.759-51.759zM258.795 545.928c0-28.586-23.173-51.759-51.759-51.759s-51.759 23.173-51.759 51.759c0 28.586 23.173 51.759 51.759 51.759s51.759-23.173 51.759-51.759zM258.795 338.892c0-28.586-23.173-51.759-51.759-51.759s-51.759 23.173-51.759 51.759c0 28.586 23.173 51.759 51.759 51.759s51.759-23.173 51.759-51.759zM465.831 131.856c0-28.586-23.173-51.759-51.759-51.759s-51.759 23.173-51.759 51.759c0 28.586 23.173 51.759 51.759 51.759s51.759-23.173 51.759-51.759zM258.795 131.856c0-28.586-23.173-51.759-51.759-51.759s-51.759 23.173-51.759 51.759c0 28.586 23.173 51.759 51.759 51.759s51.759-23.173 51.759-51.759z" />
<glyph unicode="&#xe913;" glyph-name="primary" d="M874.070 810.017c-92.194 90.030-218.413 145.57-357.605 145.57-282.784 0-512.026-229.242-512.026-512.026 0-139.205 55.551-265.435 145.694-357.731l-0.097 0.1c92.194-90.030 218.413-145.57 357.605-145.57 282.784 0 512.026 229.242 512.026 512.026 0 139.205-55.551 265.435-145.694 357.731l0.097-0.1zM512.079-4.039c-249.639 0-452.012 202.373-452.012 452.012s202.373 452.012 452.012 452.012c249.639 0 452.012-202.373 452.012-452.012v0c-0.301-249.519-202.494-451.711-451.984-452.012h-0.028zM702.76 638.707c-47.975 44.471-112.432 71.754-183.262 71.754-149.065 0-269.905-120.841-269.905-269.905 0-70.83 27.283-135.287 71.914-183.436l-0.159 0.174c47.975-44.471 112.432-71.754 183.262-71.754 149.065 0 269.905 120.841 269.905 269.905 0 70.83-27.283 135.287-71.914 183.436l0.159-0.174z" />
<glyph unicode="&#xe914;" glyph-name="expanded" horiz-adv-x="1047" d="M239.887 720.113h-239.887v-100.704h340.326v340.591h-100.704zM807.275 720.113v239.887h-100.704v-340.326h340.326v100.439zM0 175.94h239.887v-239.887h100.704v340.326h-340.591zM706.571-63.947h100.704v239.887h239.887v100.704h-340.591zM354.902 561.583h337.093v-227.114h-337.093z" />
<glyph unicode="&#xe915;" glyph-name="warning" horiz-adv-x="1119" d="M1114.228-6.582l-520.785 946.525c-6.722 12.058-19.398 20.080-33.948 20.080s-27.226-8.021-33.847-19.883l-0.101-0.197-520.785-946.525c-3.022-5.389-4.802-11.827-4.802-18.681 0-21.389 17.335-38.73 38.723-38.737h1041.623c21.388 0.008 38.724 17.348 38.724 38.737 0 6.854-1.78 13.292-4.903 18.877l0.101-0.196zM104.252 13.475l455.111 827.403 455.111-827.403zM510.995 564.159v-279.999c0-26.816 21.738-48.554 48.554-48.554s48.554 21.738 48.554 48.554v279.999c0 26.816-21.738 48.554-48.554 48.554s-48.554-21.738-48.554-48.554v0zM559.522 185.2c-28.233 0-51.121-22.887-51.121-51.121s22.887-51.121 51.121-51.121c28.233 0 51.121 22.887 51.121 51.121v0c-0.030 28.221-22.9 51.091-51.118 51.121h-0.003z" />
<glyph unicode="&#xe916;" glyph-name="hamburgermenu" d="M149.333 661.333c-11.782 0-21.333 9.551-21.333 21.333s9.551 21.333 21.333 21.333h725.333c11.782 0 21.333-9.551 21.333-21.333s-9.551-21.333-21.333-21.333h-725.333zM149.333 448c-11.782 0-21.333 9.551-21.333 21.333s9.551 21.333 21.333 21.333h725.333c11.782 0 21.333-9.551 21.333-21.333s-9.551-21.333-21.333-21.333h-725.333zM149.333 234.667c-11.782 0-21.333 9.551-21.333 21.333s9.551 21.333 21.333 21.333h725.333c11.782 0 21.333-9.551 21.333-21.333s-9.551-21.333-21.333-21.333h-725.333z" />
<glyph unicode="&#xe917;" horiz-adv-x="5939" d="M519.68 647.782v-373.965" />
<glyph unicode="&#xe918;" glyph-name="group1" horiz-adv-x="1596" d="M1073.283 384.666l-135.873 60.427c-9.376 4.244-15.782 13.517-15.782 24.287 0 0.003 0 0.006 0 0.008v0 37.308c45.813 36.605 74.92 92.457 74.962 155.109v52.474c15.002 8.422 24.976 24.226 24.987 42.359v5.055c-0.197 109.367-88.802 197.972-198.15 198.169h-49.994c-109.367-0.197-197.972-88.802-198.169-198.15v-46.118c-0.004-0.23-0.006-0.502-0.006-0.775 0-15.585 7.265-29.474 18.593-38.463l0.101-0.078c1.832-1.426 3.893-2.779 6.058-3.963l0.241-0.121v-10.313c0-0.010 0-0.022 0-0.035 0-62.614 29.029-118.449 74.363-154.778l0.391-0.303v-37.308c0-0.002 0-0.005 0-0.008 0-10.77-6.405-20.044-15.615-24.219l-0.167-0.068-135.873-60.427c-43.5-19.728-73.215-62.769-73.232-112.753v-309.888c-0.2-1.153-0.315-2.48-0.315-3.835 0-12.997 10.536-23.534 23.534-23.534 12.569 0 22.837 9.853 23.5 22.257l0.003 0.059c0.081 0.758 0.127 1.637 0.127 2.526s-0.046 1.769-0.136 2.635l0.009-0.108v309.816q0 4.015 0.485 8.029l62.296-62.642c9.321-9.278 15.090-22.118 15.090-36.306 0-0.060 0-0.121 0-0.181v0.009-218.865c-0.15-1-0.236-2.154-0.236-3.327 0-12.997 10.536-23.534 23.534-23.534 12.512 0 22.744 9.764 23.49 22.089l0.003 0.066c0.080 0.706 0.126 1.524 0.126 2.353s-0.046 1.647-0.135 2.453l0.009-0.099v218.934c-0.025 27.049-11.027 51.524-28.791 69.214l-74.619 74.619c6.675 6.943 14.62 12.606 23.471 16.626l0.478 0.194 133.589 59.388 99.119-99.119v-340.134c-0.020-0.364-0.032-0.79-0.032-1.218 0-12.997 10.536-23.534 23.534-23.534 11.643 0 21.311 8.455 23.2 19.56l0.020 0.139c0.081 0.758 0.127 1.637 0.127 2.526s-0.046 1.769-0.136 2.635l0.009-0.108v340.549l99.050 99.050 133.589-59.319c9.324-4.225 17.268-9.887 23.927-16.796l0.023-0.024-74.616-74.616c-17.786-17.671-28.794-42.145-28.794-69.191 0-0.009 0-0.019 0-0.028v0.002-218.865c-0.020-0.364-0.032-0.79-0.032-1.218 0-12.997 10.536-23.534 23.534-23.534 11.643 0 21.311 8.455 23.2 19.56l0.020 0.139c0.081 0.758 0.127 1.637 0.127 2.526s-0.046 1.769-0.136 2.635l0.009-0.108v218.519c0 0.068-0.001 0.149-0.001 0.229 0 14.17 5.769 26.992 15.087 36.246l62.299 62.299c0.282-2.38 0.458-5.168 0.484-7.991v-309.924c-0.2-1.153-0.315-2.48-0.315-3.835 0-12.997 10.536-23.534 23.534-23.534 12.569 0 22.837 9.853 23.5 22.257l0.003 0.059c0.081 0.758 0.127 1.637 0.127 2.526s-0.046 1.769-0.136 2.635l0.009-0.108v310.232c0 0.007 0 0.016 0 0.024 0 49.801-29.464 92.72-71.911 112.276l-0.767 0.317zM798.283 345.005l-86.937 86.798c6.479 10.694 10.313 23.616 10.313 37.434 0 0.004 0 0.009 0 0.013v-0.001 9.621c22.605-9.731 48.919-15.39 76.554-15.39s53.949 5.659 77.846 15.881l-1.292-0.491v-9.483c0-0.004 0-0.008 0-0.012 0-13.818 3.834-26.74 10.497-37.761l-0.184 0.327zM798.283 510.296c-83.687 0.079-151.507 67.899-151.586 151.578v10.528c16.421 6.919 30.485 16.256 42.481 27.735l-0.051-0.048c4.706 4.318 7.645 10.496 7.645 17.36 0 12.997-10.536 23.534-23.534 23.534-4.345 0-8.415-1.178-11.908-3.231l0.11 0.060c-1.375-1.014-2.577-2.129-3.645-3.364l-0.024-0.028c-9.41-9.366-21.032-16.518-34.013-20.604l-0.595-0.162h-0.623c-0.265 0.551-0.42 1.198-0.42 1.882 0 0.068 0.002 0.137 0.005 0.204v-0.010 46.237c0.079 83.687 67.899 151.507 151.578 151.586h49.982c83.687-0.079 151.507-67.899 151.586-151.578v-4.852c0-0.009 0-0.020 0-0.030 0-0.68-0.427-1.261-1.028-1.489l-0.011-0.004c-21.827-6.977-46.935-10.997-72.982-10.997-61.611 0-117.967 22.498-161.302 59.726l0.329-0.276c-3.996 3.231-9.139 5.187-14.739 5.187-12.997 0-23.534-10.536-23.534-23.534 0-5.6 1.956-10.743 5.222-14.784l-0.035 0.045c50.951-44.025 117.837-70.844 190.986-70.844 18.418 0 36.439 1.7 53.914 4.952l-1.809-0.28v-42.223c0-0.144 0.001-0.314 0.001-0.485 0-83.833-67.96-151.793-151.793-151.793-0.073 0-0.147 0-0.22 0h0.011zM421.81 511.957v50.044c-0.072 60.729-31.416 114.122-78.792 144.948l-0.669 0.408c2.854 8.792 4.499 18.907 4.499 29.408 0 54.321-44.036 98.358-98.358 98.358s-98.358-44.036-98.358-98.358c0-10.5 1.645-20.616 4.692-30.104l-0.193 0.696c-48.045-31.235-79.389-84.627-79.461-145.345v-50.055c0-0.007 0-0.016 0-0.025 0-58.905 29.433-110.936 74.394-142.188l0.569-0.374v-51.428c0-0.027 0-0.058 0-0.089 0-10.327-5.905-19.275-14.523-23.652l-0.151-0.070-80.915-40.284c-32.499-16.353-54.405-49.442-54.405-87.648 0-0.115 0-0.23 0.001-0.345v0.018-203.568c-0.2-1.153-0.315-2.48-0.315-3.835 0-12.997 10.536-23.534 23.534-23.534 12.569 0 22.837 9.853 23.5 22.257l0.003 0.059c0.081 0.758 0.127 1.637 0.127 2.526s-0.046 1.769-0.136 2.635l0.009-0.108v193.393l38.139-38.069c9.321-9.278 15.090-22.118 15.090-36.306 0-0.060 0-0.121 0-0.181v0.009-118.846c1.329-11.854 11.296-20.985 23.395-20.985s22.066 9.131 23.386 20.878l0.010 0.107v118.915c-0.025 27.049-11.027 51.524-28.791 69.214l-53.785 53.785c3.233 2.883 6.895 5.396 10.852 7.41l0.292 0.135 80.846 40.838c4.429 2.156 8.218 4.46 11.768 7.068l-0.209-0.146 57.104-57.104v-240.253c-0.15-1-0.236-2.154-0.236-3.327 0-12.997 10.536-23.534 23.534-23.534 12.512 0 22.744 9.764 23.49 22.089l0.003 0.066c0.080 0.706 0.126 1.524 0.126 2.353s-0.046 1.647-0.135 2.453l0.009-0.099v240.115l57.035 57.243c3.342-2.462 7.13-4.765 11.118-6.726l0.441-0.196 22.288-11.144c2.074-0.663 4.46-1.045 6.936-1.045 12.997 0 23.534 10.536 23.534 23.534 0 7.8-3.795 14.713-9.638 18.996l-0.066 0.046-22.288 11.144c-8.804 4.396-14.744 13.339-14.744 23.67 0 0.050 0 0.099 0 0.149v-0.008 51.359c45.744 31.55 75.363 83.635 75.447 142.644v0.013zM248.767 788.48c28.464-0.039 51.528-23.103 51.567-51.563v-0.004c-0.007-3.259-0.309-6.442-0.88-9.53l0.050 0.324c-15.176 4.825-32.632 7.605-50.736 7.605s-35.56-2.78-51.962-7.937l1.226 0.332c-0.559 2.844-0.88 6.113-0.88 9.458 0 24.991 17.873 45.807 41.534 50.363l0.322 0.052c2.834 0.573 6.092 0.901 9.427 0.901 0.117 0 0.234 0 0.351-0.001h-0.018zM248.767 688.53c69.873-0.079 126.49-56.72 126.529-126.595v-8.518c-13.14-4.272-28.26-6.735-43.956-6.735-45.855 0-86.799 21.023-113.721 53.955l-0.208 0.262c-4.343 5.665-11.113 9.281-18.727 9.281-5.369 0-10.317-1.798-14.277-4.824l0.057 0.042c-0.84-0.642-1.585-1.299-2.282-2.005l-0.002-0.002c-16.306-16.846-36.38-29.944-58.869-37.944l-1.073-0.333c1.737 68.472 57.552 123.342 126.232 123.553h0.020zM248.767 245.124l-54.059 54.059c1.539 5.621 2.423 12.074 2.423 18.734 0 0.008 0 0.017 0 0.025v-0.001 28.518c15.421-4.952 33.16-7.806 51.567-7.806s36.146 2.854 52.801 8.145l-1.234-0.338v-28.518c0-0.007 0-0.015 0-0.024 0-6.66 0.884-13.114 2.541-19.25l-0.119 0.515zM248.767 385.358c-69.862 0.079-126.48 56.672-126.598 126.518v4.856c28.93 7.151 54.147 20.159 75.414 37.768l-0.313-0.252c12.623-11.952 26.845-22.425 42.26-31.015l1.070-0.548c25.781-14.452 56.566-22.988 89.341-23.049h0.018c16.021 0.072 31.549 2.036 46.417 5.68l-1.356-0.281c-3.808-66.868-58.92-119.662-126.382-119.746h-0.008zM1542.022 303.613l-131.028 65.41c-8.769 4.446-14.674 13.394-14.674 23.721 0 0.031 0 0.063 0 0.094v-0.005 33.155c30.69 27.211 49.945 66.727 49.975 110.742v26.584h1.315c0.021 0 0.045 0 0.069 0 12.959 0 23.465 10.505 23.465 23.465 0 0.024 0 0.049 0 0.073v-0.004 49.975c-0.039 81.861-66.291 148.235-148.102 148.471h-49.998c-81.89-0.079-148.254-66.442-148.333-148.325v-49.983c0-0.021 0-0.045 0-0.069 0-12.959 10.505-23.465 23.465-23.465 0.024 0 0.049 0 0.073 0h1.726v-26.649c0.030-44.020 19.285-83.537 49.821-110.614l0.154-0.134v-33.086c0-0.029 0-0.064 0-0.098 0-10.343-5.938-19.298-14.591-23.643l-0.152-0.069c-9.615-3.104-16.448-11.975-16.448-22.442 0-12.997 10.536-23.534 23.534-23.534 3.395 0 6.622 0.719 9.537 2.013l-0.15-0.059c1.697 0.636 3.158 1.381 4.517 2.269l-0.088-0.054c4.46 2.167 8.271 4.471 11.849 7.075l-0.221-0.153 57.104-57.104v-315.146c-0.2-1.153-0.315-2.48-0.315-3.835 0-12.997 10.536-23.534 23.534-23.534 12.569 0 22.837 9.853 23.5 22.257l0.003 0.059c0.081 0.758 0.127 1.637 0.127 2.526s-0.046 1.769-0.136 2.635l0.009-0.108v315.354l57.104 57.104c3.347-2.489 7.137-4.794 11.135-6.736l0.424-0.186 126.598-63.403-38.416-38.416c-17.78-17.685-28.786-42.165-28.794-69.216v-193.81c1.329-11.854 11.296-20.985 23.395-20.985s22.066 9.131 23.386 20.878l0.010 0.107v193.808c-0.001 0.085-0.001 0.186-0.001 0.286 0 14.152 5.77 26.956 15.086 36.187l36.412 36.412c1.082-3.962 1.712-8.514 1.73-13.21v-253.554c1.164-11.975 11.178-21.26 23.361-21.26s22.197 9.284 23.353 21.164l0.008 0.096v253.058c0 0.099 0.001 0.217 0.001 0.335 0 38.167-21.877 71.224-53.776 87.315l-0.56 0.256zM1171.502 615.090v21.803c0.079 56.048 45.494 101.463 101.534 101.542h49.982c56.048-0.079 101.463-45.494 101.542-101.534v-25.963c-60.357 1.934-116.44 18.536-165.327 46.331l1.767-0.925c-3.624 2.471-8.098 3.945-12.917 3.945-0.009 0-0.018 0-0.028 0h0.001c-6.467-0.036-12.31-2.675-16.542-6.921l-0.001-0.001c-16.303-16.946-36.404-30.116-58.942-38.152l-1.069-0.333zM1298.031 320.087l-54.059 54.059c1.539 5.621 2.423 12.074 2.423 18.734 0 0.008 0 0.017 0 0.025v-0.001 4.984c15.334-5.873 33.070-9.274 51.601-9.274s36.268 3.401 52.619 9.614l-1.018-0.34v-4.984c0-0.063 0-0.137 0-0.212 0-6.595 0.884-12.983 2.541-19.053l-0.118 0.506zM1298.031 435.333c-56.048 0.079-101.463 45.494-101.542 101.534v37.661c21.076 8.657 39.223 19.962 55.132 33.776l-0.242-0.206c43.108-22.047 93.403-37.058 146.614-42.029l1.649-0.124v-29.002c0 0 0 0 0 0 0-56.108-45.445-101.601-101.534-101.68h-0.008z" />
<glyph unicode="&#xe919;" horiz-adv-x="5939" d="M332.698 460.8h373.965" />
<glyph unicode="&#xe91a;" glyph-name="pencil" horiz-adv-x="1020" d="M957.569 893.315c-40.828 41.161-97.41 66.642-159.943 66.642s-119.115-25.481-159.928-66.627l-0.015-0.015-585.405-586.474c-4.225-4.426-7.183-10.097-8.271-16.407l-0.027-0.188-43.829-321.107c-0.104-0.968-0.163-2.091-0.163-3.228 0-8.37 3.216-15.988 8.48-21.686l-0.020 0.022c5.045-5.126 12.059-8.303 19.814-8.303 0.193 0 0.385 0.002 0.576 0.006h3.534l193.133 26.063c14.319 2.103 25.187 14.303 25.187 29.041 0 16.202-13.134 29.336-29.336 29.336-1.464 0-2.902-0.107-4.308-0.314l0.159 0.019-155.209-21.329 30.797 223.981 235.791-235.791c5.045-5.126 12.059-8.303 19.814-8.303 0.193 0 0.385 0.002 0.576 0.006h-0.029c7.896 0.189 15.028 3.311 20.38 8.314l-0.018-0.016 585.405 585.405c41.044 41.801 66.38 99.146 66.38 162.41 0 61.454-23.907 117.325-62.929 158.818l0.112-0.12zM649.494 821.030l98.348-98.348-534.5-534.5-98.348 98.348zM350.988 49.721l-95.955 95.955 534.5 534.5 95.955-95.955zM926.823 626.727l-235.791 235.791c28.392 23.604 65.228 37.929 105.41 37.929 0.434 0 0.868-0.002 1.302-0.005h-0.066c46.17-0.091 87.996-18.609 118.532-48.588l-0.026 0.025c29.998-29.562 48.582-70.635 48.582-116.049 0-0.864-0.007-1.727-0.020-2.588l0.002 0.13c0.003-0.36 0.004-0.785 0.004-1.211 0-40.198-14.345-77.046-38.196-105.703l0.217 0.268z" />
<glyph unicode="&#xe91b;" glyph-name="group2" horiz-adv-x="1290" d="M661.916-21.031c-4.568 4.558-10.869 7.381-17.829 7.396h-0.003c-6.945-0.038-13.224-2.856-17.788-7.397l0.001 0.001c-4.523-4.568-7.326-10.848-7.351-17.782v-0.005c0.025-6.939 2.827-13.218 7.353-17.789l-0.002 0.002c4.563-4.54 10.842-7.358 17.779-7.396h0.007c6.963 0.015 13.264 2.838 17.832 7.396v0c4.527 4.566 7.331 10.847 7.351 17.783v0.004c-0.020 6.94-2.823 13.221-7.352 17.788l0.002-0.002zM1154.949 401.764l-84.033 20.101v33.305c46.98 29.898 77.703 81.688 77.726 140.656v93.883c-0.129 91.757-74.49 166.102-166.24 166.205h-0.010c-0.009 0-0.020 0-0.031 0-49.447 0-93.841-21.634-124.232-55.953l-0.152-0.175c-27.663 93.22-112.498 160.080-212.97 160.216h-0.016c-100.711-0.069-185.73-67.171-212.86-159.099l-0.398-1.571c-30.544 34.733-75.077 56.536-124.702 56.536-0.011 0-0.022 0-0.033 0h0.002c-91.76-0.103-166.121-74.448-166.25-166.192v-93.891c0.021-58.961 30.724-110.746 77.009-140.259l0.672-0.4v-33.305l-83.987-20.101c-77.763-18.802-134.625-87.795-134.625-170.069 0-0.157 0-0.313 0.001-0.47v0.024-169.29c0-13.908 11.275-25.183 25.183-25.183h201.37v-75.548c0-13.908 11.275-25.183 25.183-25.183v0h276.328c13.908 0 25.183 11.275 25.183 25.183v0c0 13.908-11.275 25.183-25.183 25.183h-112.437v110.849c0 13.908-11.275 25.183-25.183 25.183v0c-13.908 0-25.183-11.275-25.183-25.183v0-110.849h-88.343v113.435c0 0.134-0.001 0.292-0.001 0.451 0 86.261 59.568 158.61 139.813 178.155l1.255 0.258 123.871 29.72 79.722-181.496c3.995-8.941 12.807-15.060 23.049-15.064h0.001c0.003 0 0.006 0 0.010 0 10.23 0 19.034 6.099 22.976 14.86l0.064 0.159 79.631 181.088 123.508-29.493c81.568-19.753 141.204-92.135 141.204-178.445 0-0.163 0-0.326-0.001-0.49v0.025-28.086c-1.262-2.879-1.997-6.235-1.997-9.762 0-0.029 0-0.059 0-0.088v0.005c0-0.025 0-0.054 0-0.084 0-3.527 0.734-6.883 2.059-9.923l-0.062 0.16v-65.702h-87.844v110.849c0 13.908-11.275 25.183-25.183 25.183v0c-13.908 0-25.183-11.275-25.183-25.183v0-110.849h-123.326c-13.908 0-25.183-11.275-25.183-25.183v0c0-13.908 11.275-25.183 25.183-25.183h286.673c13.908 0 25.183 11.275 25.183 25.183v0 75.548h201.914c13.908 0 25.183 11.275 25.183 25.183v0 169.29c0.001 0.252 0.002 0.55 0.002 0.848 0 82.169-56.702 151.094-133.112 169.783l-1.197 0.248zM982.528 805.592c63.955-0.077 115.782-51.889 115.885-115.83v-8.813h-72.054c-57.065 0.004-110.542 15.366-156.522 42.178l1.48-0.797c14.614 48.421 58.75 83.104 111.012 83.261h0.018zM866.688 599.957v67.743c46.539-23.409 101.424-37.116 159.51-37.116 0.009 0 0.018 0 0.027 0h72.053v-34.711c-0.103-63.951-51.931-115.762-115.878-115.84h-0.007c-63.935 0.103-115.737 51.905-115.84 115.83v4.139zM473.931 738.439c0.129 94.538 76.745 171.138 171.277 171.241h0.010c94.542-0.103 171.158-76.703 171.287-171.229v-3.324l-93.47 54.903c-3.655 2.186-8.063 3.479-12.772 3.479-7.736 0-14.656-3.488-19.276-8.977l-0.031-0.038c-35.127-41.729-87.391-68.061-145.805-68.061-0.105 0-0.21 0-0.315 0h-70.858zM191.433 683.446v6.262c0.103 63.951 51.931 115.762 115.878 115.84h0.007c52.335-0.094 96.539-34.797 110.952-82.439l0.214-0.822c-44.501-26.017-97.978-41.379-155.043-41.381h-72.054zM191.433 595.828v34.711h72.054c0 0 0.001 0 0.001 0 58.165 0 113.121 13.741 161.799 38.153l-2.084-0.947v-71.918c-0.103-63.935-51.905-115.737-115.83-115.84h-0.010c-0.014 0-0.030 0-0.046 0-63.981 0-115.866 51.789-116.021 115.734v0.015zM226.734 100.072v-12.886h-75.457v111.892c0 13.908-11.275 25.183-25.183 25.183v0c-13.908 0-25.183-11.275-25.183-25.183v0-111.892h-50.365v144.108c0 0.101 0 0.221 0 0.341 0 58.631 40.511 107.799 95.069 121.042l0.852 0.175 79.813 19.057 52.089-124.824c-32.273-39.749-51.817-90.969-51.817-146.753 0-0.107 0-0.213 0-0.32v0.016zM307.318 308.793l-38.296 91.61v33.804c11.463-2.845 24.631-4.497 38.179-4.537h0.026c13.495 0.042 26.584 1.693 39.112 4.773l-1.134-0.236v-34.167zM406.46 328.122c-16.362-3.976-30.559-8.999-44.064-15.262l1.458 0.607 24.547 58.759 79.813-19.148c7.112-1.734 13.164-3.74 18.997-6.165l-0.847 0.312zM531.465 380.62c-14.809 9.318-31.989 16.686-50.302 21.169l-1.198 0.248-84.305 20.237v33.032c21.121 13.454 38.541 30.83 51.644 51.242l0.4 0.666c19.459-37.454 47.975-67.847 82.729-89.011l0.986-0.558zM707.698 343.231l-62.888-143.019-62.979 143.291v51.953c18.743-5.76 40.289-9.077 62.609-9.077 0.321 0 0.643 0.001 0.964 0.002h-0.050c22.293 0.008 43.809 3.324 64.087 9.483l-1.562-0.408v-52.679zM645.173 436.611c-94.558 0.103-171.184 76.729-171.287 171.277v58.27h70.874c0.063 0 0.137 0 0.212 0 66.377 0 126.474 26.893 169.988 70.377l-0.002-0.002 101.32-59.531v-75.003c-3.22-92.122-78.639-165.589-171.234-165.66h-0.007zM758.063 417.236c35.974 21.65 64.692 52.056 83.719 88.342l0.586 1.226c13.489-20.863 30.806-38.079 51.097-51.051l0.674-0.403v-33.032l-84.305-20.237c-19.616-4.767-36.887-12.198-52.498-22.025l0.726 0.427v36.753zM882.705 328.077l-79.677 19.012c5.12 2.197 11.307 4.265 17.684 5.851l0.874 0.184 79.631 19.057 24.638-58.986c-12.251 5.68-26.685 10.693-41.672 14.284l-1.615 0.326zM944.369 399.677c0.026 0.414 0.041 0.897 0.041 1.384s-0.015 0.97-0.044 1.45l0.003-0.066v31.762c11.393-2.843 24.482-4.494 37.95-4.537h0.028c13.553 0.028 26.707 1.68 39.295 4.773l-1.135-0.236v-33.395l-38.477-92.064zM1239.299 87.413h-50.365v111.892c0 13.908-11.275 25.183-25.183 25.183v0c-13.898-0.026-25.157-11.285-25.183-25.18v-111.894h-75.956v12.75c0 0.144 0.001 0.314 0.001 0.484 0 55.617-19.419 106.699-51.847 146.835l0.347-0.443 52.271 125.187 79.994-19.148c55.41-13.417 95.921-62.586 95.921-121.216 0-0.12 0-0.239-0.001-0.359v0.018z" />
<glyph unicode="&#xea0a;" glyph-name="plus" d="M992 576h-352v352c0 17.672-14.328 32-32 32h-192c-17.672 0-32-14.328-32-32v-352h-352c-17.672 0-32-14.328-32-32v-192c0-17.672 14.328-32 32-32h352v-352c0-17.672 14.328-32 32-32h192c17.672 0 32 14.328 32 32v352h352c17.672 0 32 14.328 32 32v192c0 17.672-14.328 32-32 32z" />
<glyph unicode="&#xf101;" glyph-name="angle-double-right" horiz-adv-x="567" d="M340 402.286c0-4.571-2.286-9.714-5.714-13.143l-266.286-266.286c-3.429-3.429-8.571-5.714-13.143-5.714s-9.714 2.286-13.143 5.714l-28.571 28.571c-3.429 3.429-5.714 8.571-5.714 13.143s2.286 9.714 5.714 13.143l224.571 224.571-224.571 224.571c-3.429 3.429-5.714 8.571-5.714 13.143s2.286 9.714 5.714 13.143l28.571 28.571c3.429 3.429 8.571 5.714 13.143 5.714s9.714-2.286 13.143-5.714l266.286-266.286c3.429-3.429 5.714-8.571 5.714-13.143zM559.429 402.286c0-4.571-2.286-9.714-5.714-13.143l-266.286-266.286c-3.429-3.429-8.571-5.714-13.143-5.714s-9.714 2.286-13.143 5.714l-28.571 28.571c-3.429 3.429-5.714 8.571-5.714 13.143s2.286 9.714 5.714 13.143l224.571 224.571-224.571 224.571c-3.429 3.429-5.714 8.571-5.714 13.143s2.286 9.714 5.714 13.143l28.571 28.571c3.429 3.429 8.571 5.714 13.143 5.714s9.714-2.286 13.143-5.714l266.286-266.286c3.429-3.429 5.714-8.571 5.714-13.143z" />
<glyph unicode="&#xf104;" glyph-name="angle-left" horiz-adv-x="384" d="M358.286 640c0-4.571-2.286-9.714-5.714-13.143l-224.571-224.571 224.571-224.571c3.429-3.429 5.714-8.571 5.714-13.143s-2.286-9.714-5.714-13.143l-28.571-28.571c-3.429-3.429-8.571-5.714-13.143-5.714s-9.714 2.286-13.143 5.714l-266.286 266.286c-3.429 3.429-5.714 8.571-5.714 13.143s2.286 9.714 5.714 13.143l266.286 266.286c3.429 3.429 8.571 5.714 13.143 5.714s9.714-2.286 13.143-5.714l28.571-28.571c3.429-3.429 5.714-8 5.714-13.143z" />
<glyph unicode="&#xf105;" glyph-name="angle-right" horiz-adv-x="347" d="M340 402.286c0-4.571-2.286-9.714-5.714-13.143l-266.286-266.286c-3.429-3.429-8.571-5.714-13.143-5.714s-9.714 2.286-13.143 5.714l-28.571 28.571c-3.429 3.429-5.714 8-5.714 13.143 0 4.571 2.286 9.714 5.714 13.143l224.571 224.571-224.571 224.571c-3.429 3.429-5.714 8.571-5.714 13.143s2.286 9.714 5.714 13.143l28.571 28.571c3.429 3.429 8.571 5.714 13.143 5.714s9.714-2.286 13.143-5.714l266.286-266.286c3.429-3.429 5.714-8.571 5.714-13.143z" />
</font>
</defs>
</svg>
